<?xml version="1.0" standalone="no"?>
<!DOCTYPE svg PUBLIC "-//W3C//DTD SVG 1.1//EN" "http://www.w3.org/Graphics/SVG/1.1/DTD/svg11.dtd" >
<svg>
<metadata>
Created by FontForge 20090914 at Wed Feb 27 00:06:39 2019
 By www-data
Modern and elegant sans serif font family.
</metadata>
<defs>
<font id="Mont-Bold" horiz-adv-x="919" >
  <font-face 
    font-family="Mont Bold"
    font-weight="800"
    font-stretch="normal"
    units-per-em="2048"
    panose-1="0 0 9 0 0 0 0 0 0 0"
    ascent="1638"
    descent="-410"
    x-height="1106"
    cap-height="1434"
    bbox="-91 -468 2102 1720"
    underline-thickness="102"
    underline-position="-510"
    unicode-range="U+0020-U+25FC"
  />
<missing-glyph horiz-adv-x="748" 
d="M68 0v1365h544v-1365h-544zM136 68h408v1229h-408v-1229z" />
    <glyph glyph-name=".notdef" horiz-adv-x="748" 
d="M68 0v1365h544v-1365h-544zM136 68h408v1229h-408v-1229z" />
    <glyph glyph-name="space" unicode=" " horiz-adv-x="489" 
 />
    <glyph glyph-name="exclam" unicode="!" horiz-adv-x="636" 
d="M167 463v1012h303v-1012h-303zM160 0v320h317v-320h-317z" />
    <glyph glyph-name="quotedbl" unicode="&#x22;" horiz-adv-x="940" 
d="M125 893v545h276v-545h-276zM539 893v545h277v-545h-277z" />
    <glyph glyph-name="numbersign" unicode="#" horiz-adv-x="1329" 
d="M1234 831h-156l-33 -229h142v-258h-185l-50 -342h-272l51 342h-231l-55 -342h-273l55 342h-134v258h176l37 229h-165v248h204l55 355h273l-54 -355h222l54 355h272l-54 -355h121v-248zM773 602l33 229h-227l-37 -229h231z" />
    <glyph glyph-name="dollar" unicode="$" horiz-adv-x="1220" 
d="M1140 415c0 -120 -36.8281 -216.329 -110.495 -288.996s-171.167 -118.334 -292.5 -137.001v-144h-236v143c-128.667 19.333 -230.5 69.333 -305.5 150s-112.5 184 -112.5 310h301c0 -60.667 22.333 -107.5 67 -140.5s99.334 -49.5 164.001 -49.5
c59.333 0 111.166 14 155.499 42s66.5 65.333 66.5 112c0 51.333 -32.333 91 -97 119c-30.667 13.333 -89.334 30.333 -176.001 51c-117.333 28 -202 54.667 -254 80c-124.667 60.667 -193 155.334 -205 284.001c-1.33301 14.667 -2 29.667 -2 45
c0 111.333 33.667 201.333 101 270s160.666 111.667 279.999 129v133h238v-133c120.667 -18.667 213.667 -65.834 279 -141.501s98 -172.834 98 -291.501h-295c0 55.333 -19.833 97.666 -59.5 126.999s-89.5 44 -149.5 44c-53.333 0 -99.166 -10.667 -137.499 -32
s-57.5 -52 -57.5 -92c0 -15.333 2.66699 -29.333 8 -42s14.666 -24 27.999 -34s25.666 -18.5 36.999 -25.5s29.166 -14.333 53.499 -22s43.666 -13.334 57.999 -17.001l68.5 -17.5l12 -3l72.5 -18.5c17 -4.33301 40.833 -11.166 71.5 -20.499s55.167 -18 73.5 -26
s40.5 -18.833 66.5 -32.5s47 -27.5 63 -41.5s33 -31.167 51 -51.5s32 -41.833 42 -64.5s18.333 -48.834 25 -78.501s10 -61.167 10 -94.5z" />
    <glyph glyph-name="percent" unicode="%" horiz-adv-x="1751" 
d="M414 790c-103.333 0 -188.166 32.333 -254.499 97s-99.5 147.667 -99.5 249c0 100.667 33.167 183.5 99.5 248.5s151.166 97.5 254.499 97.5c104 0 188.833 -32.333 254.5 -97s98.5 -147.667 98.5 -249s-33 -184.333 -99 -249s-150.667 -97 -254 -97zM268 -8l870 1444
h313l-870 -1444h-313zM414 1019c34 0 62.001 10.999 84.001 32.999s33 50 33 84c0 34.667 -10.833 63 -32.5 85s-49.834 33 -84.501 33c-33.333 0 -61.166 -11 -83.499 -33s-33.5 -50.333 -33.5 -85c0 -33.333 11.167 -61.166 33.5 -83.499s50.166 -33.5 83.499 -33.5z
M1338 -9.00098c-103.333 0 -188.166 32.5 -254.499 97.5s-99.5 147.833 -99.5 248.5s33.167 183.334 99.5 248.001s151.166 97 254.499 97s188 -32.333 254 -97s99 -147.334 99 -248.001s-33 -183.5 -99 -248.5s-150.667 -97.5 -254 -97.5zM1338 219.999
c34 0 61.834 10.998 83.501 32.998s32.5 50 32.5 84c0 34.667 -10.667 62.834 -32 84.501s-49.333 32.5 -84 32.5c-34 0 -62 -11 -84 -33s-33 -50 -33 -84c0 -33.333 11.167 -61.166 33.5 -83.499s50.166 -33.5 83.499 -33.5z" />
    <glyph glyph-name="ampersand" unicode="&#x26;" horiz-adv-x="1323" 
d="M1319 0l-321.998 -0.00195312c-9.33301 10 -22.333 24.667 -39 44l-37 42c-111.333 -73.333 -241.333 -110 -390 -110c-134.667 0 -243.167 37.333 -325.5 112s-123.5 174 -123.5 298c0 48 6.5 92.833 19.5 134.5s31.667 79 56 112s50.666 62.167 78.999 87.5
s60.833 50 97.5 74c-51.333 74.667 -86.5 136 -105.5 184s-28.5 93.667 -28.5 137c0 102.667 37 185.167 111 247.5s172 93.5 294 93.5c120 0 217 -31.167 291 -93.5s111 -144.5 111 -246.5c0 -37.333 -6.16699 -72.666 -18.5 -105.999s-27.5 -62.333 -45.5 -87
s-41.833 -49.667 -71.5 -75s-57.334 -46.333 -83.001 -63s-57.167 -35.667 -94.5 -57l224 -268c32.667 64.667 52 137.334 58 218.001h252c-6.66699 -163.333 -51 -304 -133 -422zM605.002 1238c-42 0 -75.502 -11.499 -100.502 -34.499s-37.5 -53.167 -37.5 -90.5
c0 -42.667 29 -107.667 87 -195c62.667 34.667 109.834 66.667 141.501 96s47.5 62.666 47.5 99.999s-12.667 67.333 -38 90s-58.666 34 -99.999 34zM559 232.999c69.333 0 133 16.001 191 48.001l-267 316c-80.667 -62.667 -121 -130 -121 -202
c0 -48.667 18 -87.834 54 -117.501s83.667 -44.5 143 -44.5z" />
    <glyph glyph-name="quotesingle" unicode="'" horiz-adv-x="526" 
d="M125 893v545h276v-545h-276z" />
    <glyph glyph-name="parenleft" unicode="(" horiz-adv-x="712" 
d="M383 -303c-94 133.333 -166.832 281.167 -218.499 443.5s-77.5 332.5 -77.5 510.5c0 179.333 25.833 350.5 77.5 513.5s124.5 311.5 218.5 445.5h331c-40.667 -51.333 -79.5 -109.833 -116.5 -175.5s-72 -139.167 -105 -220.5s-59.333 -171 -79 -269
s-29.5 -196 -29.5 -294c0 -97.333 9.5 -194.833 28.5 -292.5s44.667 -187 77 -268s67.166 -154.167 104.499 -219.5s76.333 -123.333 117 -174h-328z" />
    <glyph glyph-name="parenright" unicode=")" horiz-adv-x="712" 
d="M330 -303l-327.999 -0.000976562c40.667 50.667 79.667 108.667 117 174s72.166 138.5 104.499 219.5s58 170.333 77 268s28.5 195.167 28.5 292.5c0 98 -9.83301 196 -29.5 294s-46 187.667 -79 269s-68 154.833 -105 220.5s-75.833 124.167 -116.5 175.5h331
c94 -134 166.833 -282.5 218.5 -445.5s77.5 -334.167 77.5 -513.5c0 -178 -25.833 -348.167 -77.5 -510.5s-124.5 -310.166 -218.5 -443.499z" />
    <glyph glyph-name="asterisk" unicode="*" horiz-adv-x="874" 
d="M806 1110l-184 -63l128 -150l-175 -144l-138 171l-138 -171l-174 144l128 150l-184 63l75 212l181 -66v192h225v-192l180 66z" />
    <glyph glyph-name="plus" unicode="+" horiz-adv-x="1120" 
d="M1047 820v-274h-340v-362h-294v362h-340v274h340v352h294v-352h340z" />
    <glyph glyph-name="comma" unicode="," horiz-adv-x="567" 
d="M138 -324l-0.000976562 146c52.667 7.33301 91.834 27.333 117.501 60s38.5 72 38.5 118h-171v319h322v-294c0 -100.667 -27.833 -181.5 -83.5 -242.5s-130.167 -96.5 -223.5 -106.5z" />
    <glyph glyph-name="hyphen" unicode="-" 
d="M126 431v288h668v-288h-668z" />
    <glyph glyph-name="period" unicode="." horiz-adv-x="561" 
d="M123 0v320h316v-320h-316z" />
    <glyph glyph-name="slash" unicode="/" horiz-adv-x="1026" 
d="M43 -167l624 1726h314l-624 -1726h-314z" />
    <glyph glyph-name="zero" unicode="0" horiz-adv-x="1298" 
d="M649 -25c-169.333 0 -303.67 63.5 -403.003 190.5s-149 299.167 -149 516.5c0 218 49.333 390.167 148 516.5s233.334 189.5 404.001 189.5s305.334 -63.167 404.001 -189.5s148 -298.5 148 -516.5c0 -217.333 -49.667 -389.5 -149 -516.5
s-233.666 -190.5 -402.999 -190.5zM648.996 248c83.333 0 147 37 191 111s66 181 66 321s-22.333 247.5 -67 322.5s-108 112.5 -190 112.5c-83.333 0 -147 -37.167 -191 -111.5s-66 -181.5 -66 -321.5s22 -247.333 66 -322s107.667 -112 191 -112z" />
    <glyph glyph-name="one" unicode="1" horiz-adv-x="737" 
d="M70 1362h500v-1362h-288v1105h-212v257z" />
    <glyph glyph-name="two" unicode="2" horiz-adv-x="1122" 
d="M606 275l415.998 0.00195312v-275h-955v64c195.333 225.333 335 390.666 419 495.999s140.833 185.666 170.5 240.999s44.5 108 44.5 158c0 47.333 -14.5 85.5 -43.5 114.5s-66.5 43.5 -112.5 43.5c-48 0 -86.5 -14.833 -115.5 -44.5s-43.5 -68.834 -43.5 -117.501v-26
h-293v30c0 126.667 40.833 230.167 122.5 310.5s189.834 120.5 324.501 120.5c134 0 243.5 -40 328.5 -120s127.5 -182.667 127.5 -308c0 -87.333 -26.667 -179.166 -80 -275.499s-156.666 -233.5 -309.999 -411.5z" />
    <glyph glyph-name="three" unicode="3" horiz-adv-x="1128" 
d="M705 858c101.333 -22.667 182.17 -71.833 242.503 -147.5s90.5 -166.834 90.5 -273.501c0 -133.333 -45.833 -243.666 -137.5 -330.999s-206.834 -131 -345.501 -131c-135.333 0 -246.333 42.167 -333 126.5s-132.334 193.833 -137.001 328.5h292
c2.66699 -55.333 20.167 -99.5 52.5 -132.5s74.166 -49.5 125.499 -49.5c54.667 0 99.667 18.5 135 55.5s53 84.5 53 142.5s-19 104.167 -57 138.5s-88.333 51.5 -151 51.5h-198v55l248 409h-467v262h868v-54z" />
    <glyph glyph-name="four" unicode="4" horiz-adv-x="1140" 
d="M1081 517v-256h-118v-261h-275v261h-654v53l449 1048h289l-362 -845h285l47 324h221v-324h118z" />
    <glyph glyph-name="five" unicode="5" horiz-adv-x="1116" 
d="M549 886c141.333 0 257.831 -42.1689 349.498 -126.502s137.5 -191.166 137.5 -320.499c0 -132.667 -45.667 -243.167 -137 -331.5s-204.666 -132.5 -339.999 -132.5c-137.333 0 -251.166 42.833 -341.499 128.5s-135.833 193.834 -136.5 324.501h295
c0.666992 -52 18.167 -95 52.5 -129s77.833 -51 130.5 -51c52 0 95.333 18.167 130 54.5s52 81.833 52 136.5c0 58 -19 105.5 -57 142.5s-86.667 55.5 -146 55.5h-382l-28 37l77 688h736v-262h-505l-24 -214h137z" />
    <glyph glyph-name="six" unicode="6" horiz-adv-x="1169" 
d="M668 904c130 0 237.167 -40.6689 321.5 -122.002s126.5 -186.666 126.5 -315.999c0 -143.333 -48 -261 -144 -353s-219 -138 -369 -138c-152.667 0 -277 45.667 -373 137s-144 209.333 -144 354c0 64 10.5 129.833 31.5 197.5s57.5 145.834 109.5 234.501l271 466h321
l-138.5 -237.5l-139.5 -241.5c40.667 12.667 83 19 127 19zM601 246.998c64 0 116.667 20.332 158 60.999s62 93.334 62 158.001c0 65.333 -20.5 118.5 -61.5 159.5s-93.833 61.5 -158.5 61.5c-63.333 0 -115.833 -20.667 -157.5 -62s-62.5 -94.333 -62.5 -159
c0 -64 20.833 -116.5 62.5 -157.5s94.167 -61.5 157.5 -61.5z" />
    <glyph glyph-name="seven" unicode="7" horiz-adv-x="1073" 
d="M58 1362h975v-39l-520 -1323h-303l436 1100h-588v262z" />
    <glyph glyph-name="eight" unicode="8" horiz-adv-x="1204" 
d="M934 723c118 -75.333 177 -179.333 177 -312c0 -127.333 -47.667 -231.833 -143 -313.5s-217.333 -122.5 -366 -122.5c-149.333 0 -271.333 40.5 -366 121.5s-142 185.833 -142 314.5c0 132.667 59 236.667 177 312c-93.333 73.333 -140 166 -140 278
c0 114 43.833 207.333 131.5 280s201.167 109 340.5 109s252.5 -36.167 339.5 -108.5s130.5 -165.833 130.5 -280.5c0 -115.333 -46.333 -208 -139 -278zM603 1152c-54 0 -98.5 -15.168 -133.5 -45.501s-52.5 -68.166 -52.5 -113.499c0 -46 17.5 -84.167 52.5 -114.5
s79.5 -45.5 133.5 -45.5s98.167 15.167 132.5 45.5s51.5 68.5 51.5 114.5s-17.167 84 -51.5 114s-78.5 45 -132.5 45zM603 225.999c64.667 0 116.834 17.5 156.501 52.5s59.5 80.5 59.5 136.5s-19.833 101.5 -59.5 136.5s-91.834 52.5 -156.501 52.5s-117 -17.5 -157 -52.5
s-60 -80.5 -60 -136.5s20 -101.5 60 -136.5s92.333 -52.5 157 -52.5z" />
    <glyph glyph-name="nine" unicode="9" horiz-adv-x="1169" 
d="M567 1390c152.667 0 276.999 -45.667 372.999 -137s144 -209.333 144 -354c0 -64 -10.5 -129.833 -31.5 -197.5s-57.5 -145.834 -109.5 -234.501l-272 -467h-322l280 480c-40.667 -12.667 -83 -19 -127 -19c-131.333 0 -238.666 40.833 -321.999 122.5
s-125 186.834 -125 315.501c0 143.333 48 261 144 353s218.667 138 368 138zM568.999 676c67.333 0 123 20.667 167 62s66 95 66 161c0 65.333 -22 118.833 -66 160.5s-99.667 62.5 -167 62.5c-68 0 -123.833 -20.833 -167.5 -62.5s-65.5 -95.167 -65.5 -160.5
c0 -66 21.667 -119.667 65 -161s99.333 -62 168 -62z" />
    <glyph glyph-name="colon" unicode=":" horiz-adv-x="569" 
d="M126 749v319h317v-319h-317zM126 0v320h317v-320h-317z" />
    <glyph glyph-name="semicolon" unicode=";" horiz-adv-x="577" 
d="M131 751v320h317v-320h-317zM142 -324l-0.000976562 146c52.667 7.33301 91.834 27.333 117.501 60s38.5 72 38.5 118h-171v319h322v-294c0 -100.667 -27.833 -181.5 -83.5 -242.5s-130.167 -96.5 -223.5 -106.5z" />
    <glyph glyph-name="less" unicode="&#x3c;" horiz-adv-x="1087" 
d="M934 1279v-336l-466 -267l466 -262v-337l-880 562v68z" />
    <glyph glyph-name="equal" unicode="=" horiz-adv-x="1253" 
d="M135 765v274h983v-274h-983zM135 314v275h983v-275h-983z" />
    <glyph glyph-name="greater" unicode="&#x3e;" horiz-adv-x="1087" 
d="M153 1279l881 -572v-68l-881 -562v337l466 262l-466 267v336z" />
    <glyph glyph-name="question" unicode="?" horiz-adv-x="1107" 
d="M371 446l0.00195312 44.998c0 41.333 4.5 79.333 13.5 114s19.333 63.334 31 86.001s28.5 45.5 50.5 68.5s40.167 40.167 54.5 51.5s34.5 26.333 60.5 45c25.333 18 44.166 32.167 56.499 42.5s26.666 24.166 42.999 41.499s27.833 35.833 34.5 55.5s10 41.834 10 66.501
c0 54.667 -18.333 99 -55 133s-81 51 -133 51c-52.667 0 -98.834 -17 -138.501 -51s-59.834 -80.333 -60.501 -139h-280c0.666992 74 14.834 140.833 42.501 200.5s64.334 108 110.001 145s96.667 65.333 153 85s114.833 29.5 175.5 29.5c62 0 121.5 -10.167 178.5 -30.5
s107.833 -49.333 152.5 -87s80.334 -85.667 107.001 -144s40 -122.5 40 -192.5c0 -31.333 -2.5 -60.5 -7.5 -87.5s-13 -51.667 -24 -74s-21.5 -41.5 -31.5 -57.5s-24.333 -32.833 -43 -50.5s-33.334 -31 -44.001 -40s-26.667 -21.833 -48 -38.5
c-25.333 -19.333 -44.5 -34.666 -57.5 -45.999s-27.667 -26.5 -44 -45.5s-28 -39.167 -35 -60.5s-10.5 -45 -10.5 -71v-45h-301zM362.002 -0.00195312v320h317v-320h-317z" />
    <glyph glyph-name="at" unicode="@" horiz-adv-x="2043" 
d="M1022 1343c98.667 0 193.831 -11.6699 285.498 -35.0029s177 -58.833 256 -106.5s147.833 -105 206.5 -172s104.667 -147.167 138 -240.5s50 -194.333 50 -303c0 -77.333 -11.5 -146.833 -34.5 -208.5s-54 -111.334 -93 -149.001s-82.167 -66.334 -129.5 -86.001
s-96.666 -29.5 -147.999 -29.5c-58 0 -110 10.5 -156 31.5s-82.333 50.833 -109 89.5c-83.333 -90 -187.666 -135 -312.999 -135c-132 0 -241.5 43.833 -328.5 131.5s-130.5 197.834 -130.5 330.501s43.5 242.5 130.5 329.5s196.5 130.5 328.5 130.5c118 0 217 -39 297 -117
l30 65h140v-500c0 -40 11.5 -72.167 34.5 -96.5s51.167 -36.5 84.5 -36.5c44 0 81.833 21.667 113.5 65s47.5 105 47.5 185c0 120.667 -29 228.834 -87 324.501s-139.833 170.5 -245.5 224.5s-226.167 81 -361.5 81s-257.333 -28 -366 -84s-193.667 -133.833 -255 -233.5
s-92 -211.5 -92 -335.5c0 -121.333 27.833 -229.666 83.5 -324.999s133.667 -169.5 234 -222.5s214.5 -79.5 342.5 -79.5c119.333 0 229 22 329 66v-226c-126 -46.667 -245.667 -70 -359 -70c-124 0 -239.667 21.5 -347 64.5s-199 102 -275 177s-135.833 165.667 -179.5 272
s-65.5 220.833 -65.5 343.5c0 112 17.167 216.167 51.5 312.5s81.333 178.833 141 247.5s129.5 127.334 209.5 176.001s165.833 84.834 257.5 108.501s186.5 35.5 284.5 35.5zM995.997 250.997c62 0 113 19.833 153 59.5s60 90.5 60 152.5s-20 112.667 -60 152
s-91 59 -153 59s-113 -19.833 -153 -59.5s-60 -90.167 -60 -151.5s20 -112 60 -152s91 -60 153 -60z" />
    <glyph glyph-name="A" unicode="A" horiz-adv-x="1470" 
d="M1116 0l-100 272h-571l-98 -272h-329l562 1434h292l580 -1434h-336zM729 1055l-187 -513h376z" />
    <glyph glyph-name="B" unicode="B" horiz-adv-x="1314" 
d="M1026 756c63.333 -32.667 112.334 -78.833 147.001 -138.5s52 -127.5 52 -203.5c0 -114.667 -44.167 -212.334 -132.5 -293.001s-194.833 -121 -319.5 -121h-609v1434h593c123.333 0 226 -35.167 308 -105.5s123 -158.166 123 -263.499
c0 -61.333 -14.333 -119.333 -43 -174s-68.334 -99.667 -119.001 -135zM887.001 1017c0 45.333 -14.667 82.001 -44 110.001s-68 42 -116 42h-258v-305h258c48.667 0 87.5 14.167 116.5 42.5s43.5 65.166 43.5 110.499zM744.001 285.002c50.667 0 91.5 15 122.5 45
s46.5 68.667 46.5 116c0 46.667 -15.5 85 -46.5 115s-71.833 45 -122.5 45h-275v-321h275z" />
    <glyph glyph-name="C" unicode="C" horiz-adv-x="1579" 
d="M821 -31c-103.333 0 -200.833 19.167 -292.5 57.5s-170.167 90.5 -235.5 156.5s-117 145.167 -155 237.5s-57 190.5 -57 294.5c0 105.333 19 204.333 57 297s89.667 172 155 238s143.833 118.167 235.5 156.5s189.167 57.5 292.5 57.5c174 0 324.833 -52.667 452.5 -158
s208.167 -243 241.5 -413h-311c-30 85.333 -78.833 152.5 -146.5 201.5s-146.5 73.5 -236.5 73.5c-121.333 0 -222.666 -43.167 -303.999 -129.5s-122 -194.166 -122 -323.499c0 -128.667 40.667 -235.834 122 -321.501s182.666 -128.5 303.999 -128.5
c94 0 175.333 26.5 244 79.5s116 125.167 142 216.5h313c-32.667 -177.333 -113 -320.333 -241 -429s-280.667 -163 -458 -163z" />
    <glyph glyph-name="D" unicode="D" horiz-adv-x="1517" 
d="M706 1434c104 0 201.167 -18 291.5 -54s167.333 -85.5 231 -148.5s113.667 -138.833 150 -227.5s54.5 -184 54.5 -286c0 -102.667 -18.333 -198.5 -55 -287.5s-86.834 -165 -150.501 -228s-140.667 -112.5 -231 -148.5s-187.166 -54 -290.499 -54h-542v1434h542zM699 288
c122.667 0 222.834 40.167 300.501 120.5s116.5 183.5 116.5 309.5s-38.833 228.833 -116.5 308.5s-177.834 119.5 -300.501 119.5h-225v-858h225z" />
    <glyph glyph-name="E" unicode="E" horiz-adv-x="1144" 
d="M474 289h573v-289h-883v1434h861v-287h-551v-283h497v-281h-497v-294z" />
    <glyph glyph-name="F" unicode="F" horiz-adv-x="1095" 
d="M1020 1145h-546v-315h493v-281h-493v-549h-310v1434h856v-289z" />
    <glyph glyph-name="G" unicode="G" horiz-adv-x="1632" 
d="M793 749l763.002 -0.00195312c0 -148 -30.833 -281.333 -92.5 -400s-148.334 -211.667 -260.001 -279s-238.167 -101 -379.5 -101c-104 0 -201.833 18.833 -293.5 56.5s-170.5 89.334 -236.5 155.001s-118 144.667 -156 237s-57 191.5 -57 297.5s18.667 205.333 56 298
s88.333 172.167 153 238.5s142.667 118.5 234 156.5s189.333 57 294 57c117.333 0 226.833 -23.167 328.5 -69.5s186.667 -111 255 -194s113.5 -177.5 135.5 -283.5h-320c-30.667 76.667 -81.334 137.5 -152.001 182.5s-151 67.5 -241 67.5
c-126.667 0 -229.834 -42 -309.501 -126s-119.5 -193 -119.5 -327c0 -133.333 39.333 -241.666 118 -324.999s182.334 -125 311.001 -125c92.667 0 175.667 22.5 249 67.5s123.333 104.5 150 178.5h-430v238z" />
    <glyph glyph-name="H" unicode="H" horiz-adv-x="1488" 
d="M1014 1434h310v-1434h-310v593h-540v-593h-310v1434h310v-553h540v553z" />
    <glyph glyph-name="I" unicode="I" horiz-adv-x="638" 
d="M164 0v1434h310v-1434h-310z" />
    <glyph glyph-name="J" unicode="J" horiz-adv-x="1247" 
d="M575 -31c-154.667 0 -281.332 48.667 -379.999 146s-148 222 -148 374v52h306v-36c0 -74 20.167 -133.167 60.5 -177.5s94.166 -66.5 161.499 -66.5c64 0 115.667 22 155 66s59 103.333 59 178v929h306v-945c0 -152.667 -47.833 -277.5 -143.5 -374.5
s-221.167 -145.5 -376.5 -145.5z" />
    <glyph glyph-name="K" unicode="K" horiz-adv-x="1343" 
d="M1359 0h-379l-506 700v-700h-310v1434h310v-663l470 663h362l-488 -687z" />
    <glyph glyph-name="L" unicode="L" horiz-adv-x="1069" 
d="M474 288h550v-288h-860v1434h310v-1146z" />
    <glyph glyph-name="M" unicode="M" horiz-adv-x="1996" 
d="M1921 0h-316l-141 936l-428 -933h-76l-428 932l-141 -935h-316l224 1434h311l388 -879l389 879h312z" />
    <glyph glyph-name="N" unicode="N" horiz-adv-x="1540" 
d="M1073 1434h304v-1434h-259l-650 896v-896h-304v1434h280l629 -875v875z" />
    <glyph glyph-name="O" unicode="O" horiz-adv-x="1685" 
d="M845 -31c-108 0 -209.333 19.1611 -304 57.4941s-175.834 90.5 -243.501 156.5s-121 145.333 -160 238s-58.5 191.334 -58.5 296.001s19.5 203.334 58.5 296.001s92.333 172 160 238s148.834 118.167 243.501 156.5s196 57.5 304 57.5c107.333 0 208.166 -19 302.499 -57
s175 -90.167 242 -156.5s119.833 -145.666 158.5 -237.999s58 -191.166 58 -296.499s-19.333 -204.166 -58 -296.499s-91.5 -171.666 -158.5 -237.999s-147.667 -118.5 -242 -156.5s-195.166 -57 -302.499 -57zM845 260.994c127.333 0 233.666 43.501 318.999 130.501
s128 195.5 128 325.5s-42.667 238.333 -128 325s-191.666 130 -318.999 130s-234.333 -43.667 -321 -131s-130 -195.333 -130 -324s43.333 -236.834 130 -324.501s193.667 -131.5 321 -131.5z" />
    <glyph glyph-name="P" unicode="P" horiz-adv-x="1273" 
d="M716 1434c94.667 0 180.5 -21.166 257.5 -63.499s137.667 -101.333 182 -177s66.5 -159.834 66.5 -252.501c0 -141.333 -48.333 -258.833 -145 -352.5s-217 -140.5 -361 -140.5h-242v-448h-310v1434h552zM702 735.001c60.667 0 110 19.333 148 58s57 88 57 148
s-18.833 109.167 -56.5 147.5s-87.167 57.5 -148.5 57.5h-228v-411h228z" />
    <glyph glyph-name="Q" unicode="Q" horiz-adv-x="1689" 
d="M1663 -154l-315.999 -0.00488281l-167 193c-104 -46.667 -215.667 -70 -335 -70c-108 0 -209.333 19.167 -304 57.5s-175.667 90.5 -243 156.5s-120.5 145.333 -159.5 238s-58.5 191.334 -58.5 296.001s19.5 203.334 58.5 296.001s92.167 172 159.5 238
s148.333 118.167 243 156.5s196 57.5 304 57.5c107.333 0 208.166 -19 302.499 -57s175 -90.167 242 -156.5s119.833 -145.666 158.5 -237.999s58 -191.166 58 -296.499c0 -107.333 -19.833 -207.666 -59.5 -300.999s-95.167 -174 -166.5 -242zM845.001 260.995
c42 0 84.666 6.00195 127.999 18.002l-285 330h316l174 -202c76 85.333 114 188.666 114 309.999c0 130 -42.667 238.333 -128 325s-191.666 130 -318.999 130s-234.333 -43.667 -321 -131s-130 -195.333 -130 -324s43.333 -236.834 130 -324.501s193.667 -131.5 321 -131.5
z" />
    <glyph glyph-name="R" unicode="R" horiz-adv-x="1353" 
d="M953 0l-279.999 489h-199v-489h-310v1434h579c144 0 263.5 -44.833 358.5 -134.5s142.5 -203.167 142.5 -340.5c0 -92.667 -23.333 -175.5 -70 -248.5s-110.334 -129.167 -191.001 -168.5l317 -542h-347zM474.001 1147v-371.001h248c64 0 114.667 17.167 152 51.5
s56 78.833 56 133.5s-18.667 99.334 -56 134.001s-88 52 -152 52h-248z" />
    <glyph glyph-name="S" unicode="S" horiz-adv-x="1267" 
d="M640 -28c-166.667 0 -300.997 44.1611 -402.997 132.494s-153 208.5 -153 360.5h312c0 -66 23.333 -116.833 70 -152.5s104 -53.5 172 -53.5c62 0 116 15.333 162 46s69 71.667 69 123c0 18 -3.16699 34.333 -9.5 49s-17 27.667 -32 39s-29.333 21 -43 29
s-33.834 16 -60.501 24s-48.5 14.167 -65.5 18.5s-42.5 10.5 -76.5 18.5c-120 29.333 -206.667 57 -260 83c-126.667 60.667 -198 154 -214 280c-2.66699 20 -4 40.667 -4 62c0 136 46.5 241.5 139.5 316.5s219.833 112.5 380.5 112.5c164 0 291.167 -40.833 381.5 -122.5
s135.5 -194.5 135.5 -338.5h-307c0 58.667 -20.833 103.5 -62.5 134.5s-93.5 46.5 -155.5 46.5c-55.333 0 -102.833 -11.667 -142.5 -35s-59.5 -57 -59.5 -101c0 -19.333 5.16699 -37 15.5 -53s22.5 -29 36.5 -39s35 -20.167 63 -30.5s52.167 -18.166 72.5 -23.499
s49.833 -12.666 88.5 -21.999l75.5 -19c17.667 -4.66699 42.5 -12 74.5 -22s57.333 -19.167 76 -27.5s41.667 -19.666 69 -33.999s49.166 -28.666 65.499 -42.999s34 -32.166 53 -53.499s33.5 -43.666 43.5 -66.999s18.5 -50.333 25.5 -81s10.5 -63.334 10.5 -98.001
c0 -75.333 -14.333 -142.666 -43 -201.999s-67.834 -107.5 -117.501 -144.5s-107 -65 -172 -84s-135.167 -28.5 -210.5 -28.5z" />
    <glyph glyph-name="T" unicode="T" horiz-adv-x="1196" 
d="M1152 1434v-288h-399v-1146h-310v1146h-398v288h1107z" />
    <glyph glyph-name="U" unicode="U" horiz-adv-x="1482" 
d="M742 -31c-170.667 0 -312.166 53.5 -424.499 160.5s-168.5 243.833 -168.5 410.5v894h311v-880c0 -88.667 26.167 -159.667 78.5 -213s120.166 -80 203.499 -80s151 26.667 203 80s78 124.333 78 213v880h311v-894c0 -166.667 -56 -303.5 -168 -410.5
s-253.333 -160.5 -424 -160.5z" />
    <glyph glyph-name="V" unicode="V" horiz-adv-x="1437" 
d="M1073 1434h339l-542 -1434h-293l-561 1434h343l362 -1014z" />
    <glyph glyph-name="W" unicode="W" horiz-adv-x="2131" 
d="M1778 1434h324l-442 -1434h-276l-320 804l-311 -804h-276l-452 1434h329l281 -953l377 938h104l387 -938z" />
    <glyph glyph-name="X" unicode="X" horiz-adv-x="1280" 
d="M1274 0h-348l-283 492l-286 -492h-349l446 752l-418 682h349l256 -442l258 442h340l-412 -693z" />
    <glyph glyph-name="Y" unicode="Y" horiz-adv-x="1390" 
d="M1358 1434l-505 -855v-579h-318v581l-500 853h330l331 -574l332 574h330z" />
    <glyph glyph-name="Z" unicode="Z" horiz-adv-x="1193" 
d="M521 288h616v-288h-1084v46l598 1100h-563v288h1026v-57z" />
    <glyph glyph-name="bracketleft" unicode="[" horiz-adv-x="720" 
d="M166 -306v1943h472v-252h-192v-1435h196v-256h-476z" />
    <glyph glyph-name="backslash" unicode="\" horiz-adv-x="1026" 
d="M983 -167h-315l-623 1726h314z" />
    <glyph glyph-name="bracketright" unicode="]" horiz-adv-x="720" 
d="M554 -306h-476v256h196v1435h-192v252h472v-1943z" />
    <glyph glyph-name="asciicircum" unicode="^" horiz-adv-x="1165" 
d="M60 694l501 744h46l497 -744h-337l-186 310l-184 -310h-337z" />
    <glyph glyph-name="underscore" unicode="_" horiz-adv-x="1056" 
d="M0 -359v286h1057v-286h-1057z" />
    <glyph glyph-name="grave" unicode="`" horiz-adv-x="1228" 
d="M668 1228h-226l-203 312h318z" />
    <glyph glyph-name="a" unicode="a" horiz-adv-x="1413" 
d="M1046 1108l224 -0.000976562v-1106h-235l-26 99c-100.667 -88 -220 -132 -358 -132c-109.333 0 -208.333 25.333 -297 76s-158 120.834 -208 210.501s-75 189.5 -75 299.5c0 109.333 25 208.5 75 297.5s119.333 158.667 208 209s187.667 75.5 297 75.5
c140.667 0 261.667 -45 363 -135zM675 251.999c86.667 0 158.5 28.6709 215.5 86.0039s85.5 129.666 85.5 216.999s-28.5 159.666 -85.5 216.999s-128.833 86 -215.5 86s-158.5 -28.833 -215.5 -86.5s-85.5 -129.834 -85.5 -216.501s28.5 -158.834 85.5 -216.501
s128.833 -86.5 215.5 -86.5z" />
    <glyph glyph-name="b" unicode="b" horiz-adv-x="1398" 
d="M746 1137c110.667 0 210.334 -25.167 299.001 -75.5s157.834 -120 207.501 -209s74.5 -188.833 74.5 -299.5s-24.833 -210.5 -74.5 -299.5s-118.834 -158.667 -207.501 -209s-188.334 -75.5 -299.001 -75.5c-132.667 0 -248 41 -346 123l-36 -92h-220v1505h299v-459
c88.667 60.667 189.667 91 303 91zM722 252c86.667 0 158.5 28.6689 215.5 86.002s85.5 129 85.5 215c0 87.333 -28.5 159.666 -85.5 216.999s-128.833 86 -215.5 86s-158.667 -28.833 -216 -86.5s-86 -129.834 -86 -216.501c0 -86 28.667 -157.667 86 -215
s129.333 -86 216 -86z" />
    <glyph glyph-name="c" unicode="c" horiz-adv-x="1280" 
d="M658 -31c-82 0 -159.333 15.167 -232 45.5s-135 71.5 -187 123.5s-93 114.333 -123 187s-45 149.667 -45 231s15 158 45 230s71 133.667 123 185s114.5 91.833 187.5 121.5s150.833 44.5 233.5 44.5c142.667 0 265.167 -41.5 367.5 -124.5
s167.166 -192.833 194.499 -329.5h-297c-24 54.667 -59.667 97.167 -107 127.5s-100.666 45.5 -159.999 45.5c-80.667 0 -148.167 -28.833 -202.5 -86.5s-81.5 -129.167 -81.5 -214.5s27.333 -157.5 82 -216.5s122 -88.5 202 -88.5c60.667 0 114 16 160 48
s81.667 77.667 107 137h301c-26 -139.333 -91.167 -251.833 -195.5 -337.5s-228.5 -128.5 -372.5 -128.5z" />
    <glyph glyph-name="d" unicode="d" horiz-adv-x="1398" 
d="M956 1505l299 0.000976562v-1505h-221l-35 92c-98 -83.333 -213.667 -125 -347 -125c-167.333 0 -306 55.667 -416 167s-165 251 -165 419c0 82.667 14.667 160.167 44 232.5s69.5 134.166 120.5 185.499s112.5 91.833 184.5 121.5s149.333 44.5 232 44.5
c112.667 0 214 -30.333 304 -91v459zM677 250.001c86.667 0 158.5 28.8291 215.5 86.4961s85.5 129.834 85.5 216.501s-28.5 158.834 -85.5 216.501s-128.833 86.5 -215.5 86.5s-158.5 -28.667 -215.5 -86s-85.5 -129.666 -85.5 -216.999s28.5 -159.666 85.5 -216.999
s128.833 -86 215.5 -86z" />
    <glyph glyph-name="e" unicode="e" horiz-adv-x="1286" 
d="M1217 557c0 -30 -2.00293 -59.333 -6.00293 -88h-837c12.667 -75.333 42.834 -133.166 90.501 -173.499s107.834 -60.5 180.501 -60.5c51.333 0 97.5 11.333 138.5 34s72.833 54 95.5 94h314c-40 -120.667 -109.333 -216.5 -208 -287.5s-212 -106.5 -340 -106.5
c-107.333 0 -204.833 25.5 -292.5 76.5s-156.5 121.167 -206.5 210.5s-75 188.333 -75 297c0 109.333 24.833 208.666 74.5 297.999s118.334 159.333 206.001 210s185.5 76 293.5 76c110.667 0 210 -26.167 298 -78.5s155.667 -122.5 203 -210.5s71 -185 71 -291z
M644.997 882c-66 0 -122 -18.333 -168 -55s-77.667 -88 -95 -154h536c-20.667 67.333 -54.5 119 -101.5 155s-104.167 54 -171.5 54z" />
    <glyph glyph-name="f" unicode="f" horiz-adv-x="849" 
d="M821 1091v-246h-278v-845h-299v845h-192v246h193v100c0 108 30 192.833 90 254.5s147 92.5 261 92.5h223v-235h-163c-80.667 0 -121 -39.667 -121 -119v-93h286z" />
    <glyph glyph-name="g" unicode="g" horiz-adv-x="1374" 
d="M1036 1106h194v-978c0 -172.667 -50.333 -308.834 -151 -408.501s-238.667 -149.5 -414 -149.5c-150 0 -275 36 -375 108s-162.667 171.333 -188 298h297c16 -47.333 48.833 -84.166 98.5 -110.499s103.834 -39.5 162.501 -39.5c78 0 143.667 23.5 197 70.5
s80 109.833 80 188.5v42c-94 -66 -199.333 -99 -316 -99c-101.333 0 -194.166 24.333 -278.499 73s-150.666 115.5 -198.999 200.5s-72.5 178.5 -72.5 280.5c0 101.333 24.167 194.5 72.5 279.5s114.666 152.167 198.999 201.5s177.166 74 278.499 74
c143.333 0 265.666 -47 366.999 -141zM656 295c81.333 0 148.666 27.167 201.999 81.5s80 122.833 80 205.5c0 82 -26.5 149.833 -79.5 203.5s-120.5 80.5 -202.5 80.5c-81.333 0 -148.666 -26.833 -201.999 -80.5s-80 -121.5 -80 -203.5
c0 -82.667 26.5 -151.167 79.5 -205.5s120.5 -81.5 202.5 -81.5z" />
    <glyph glyph-name="h" unicode="h" horiz-adv-x="1312" 
d="M777 1132c124.667 0 223.5 -41.333 296.5 -124s109.5 -194.667 109.5 -336v-672h-299v622c0 84 -15.5 146.333 -46.5 187s-79.833 61 -146.5 61c-75.333 0 -135.5 -25.833 -180.5 -77.5s-67.5 -122.167 -67.5 -211.5v-581h-299v1505h299v-502c90 86 201.333 129 334 129z
" />
    <glyph glyph-name="i" unicode="i" horiz-adv-x="585" 
d="M144 1253v278h298v-278h-298zM144 0v1106h299v-1106h-299z" />
    <glyph glyph-name="j" unicode="j" horiz-adv-x="610" 
d="M169 1253v278h298v-278h-298zM-91 -399v275h96c108.667 0 163 54.333 163 163v1067h299v-1090c0 -121.333 -38.667 -220.833 -116 -298.5s-177 -116.5 -299 -116.5h-143z" />
    <glyph glyph-name="k" unicode="k" horiz-adv-x="1175" 
d="M1186 0h-362l-354 529v-529h-299v1505h299v-890l332 491h344l-374 -527z" />
    <glyph glyph-name="l" unicode="l" horiz-adv-x="585" 
d="M144 0v1505h299v-1505h-299z" />
    <glyph glyph-name="m" unicode="m" horiz-adv-x="1921" 
d="M1402 1132c114.667 0 208.17 -40.6689 280.503 -122.002s108.5 -186.666 108.5 -315.999v-694h-299v644c0 74 -14.167 130.167 -42.5 168.5s-69.5 57.5 -123.5 57.5c-66.667 0 -118.834 -23.833 -156.501 -71.5s-56.5 -114.5 -56.5 -200.5v-598h-291v644
c0 74 -13.833 130.167 -41.5 168.5s-68.167 57.5 -121.5 57.5c-68 0 -121 -23.833 -159 -71.5s-57 -114.5 -57 -200.5v-598h-299v1106h208l56 -137c39.333 50 88.166 89.667 146.499 119s119.5 44 183.5 44c70 0 133 -15.5 189 -46.5s100 -74.5 132 -130.5
c38.667 54.667 88.167 97.834 148.5 129.501s125.166 47.5 194.499 47.5z" />
    <glyph glyph-name="n" unicode="n" horiz-adv-x="1312" 
d="M773 1132c125.333 0 224.999 -41.832 298.999 -125.499s111 -195.834 111 -336.501v-670h-299v622c0 165.333 -64.333 248 -193 248c-76.667 0 -137.167 -25.833 -181.5 -77.5s-66.5 -122.167 -66.5 -211.5v-581h-299v1106h205l58 -137
c42.667 50.667 95.834 90.5 159.501 119.5s132.5 43.5 206.5 43.5z" />
    <glyph glyph-name="o" unicode="o" horiz-adv-x="1337" 
d="M669 -31c-112.667 0 -214.667 25.332 -306 75.999s-162.833 120.667 -214.5 210s-77.5 188.666 -77.5 297.999c0 110.667 25.833 210.5 77.5 299.5s123.167 158.667 214.5 209s193.333 75.5 306 75.5c112 0 213.667 -25.167 305 -75.5s163 -120.166 215 -209.499
s78 -189 78 -299c0 -109.333 -26 -208.666 -78 -297.999s-123.667 -159.333 -215 -210s-193 -76 -305 -76zM669 249.999c86 0 156.667 28.167 212 84.5s83 129.166 83 218.499s-27.667 162.166 -83 218.499s-126 84.5 -212 84.5s-156.667 -28.167 -212 -84.5
s-83 -129.166 -83 -218.499s27.667 -162.166 83 -218.499s126 -84.5 212 -84.5z" />
    <glyph glyph-name="p" unicode="p" horiz-adv-x="1396" 
d="M747 1137c109.333 0 208.167 -25.167 296.5 -75.5s157.5 -120.166 207.5 -209.499s75 -189 75 -299s-25 -209.833 -75 -299.5s-119.167 -159.834 -207.5 -210.501s-187.166 -76 -296.499 -76c-112 0 -213.333 31 -304 93v-459h-299v1505h197l51 -101
c99.333 88 217.666 132 354.999 132zM722.001 250c86.667 0 158.5 28.6709 215.5 86.0039s85.5 129.666 85.5 216.999s-28.5 159.666 -85.5 216.999s-128.833 86 -215.5 86s-158.5 -28.833 -215.5 -86.5s-85.5 -129.834 -85.5 -216.501s28.5 -158.834 85.5 -216.501
s128.833 -86.5 215.5 -86.5z" />
    <glyph glyph-name="q" unicode="q" horiz-adv-x="1396" 
d="M1056 1106l198.001 0.000976562v-1505h-299v459c-90.667 -62 -192.334 -93 -305.001 -93c-109.333 0 -208.166 25.333 -296.499 76s-157.5 120.667 -207.5 210s-75 189.333 -75 300c0 110 24.833 209.667 74.5 299s118.667 159.166 207 209.499s187.5 75.5 297.5 75.5
c137.333 0 255.666 -44 354.999 -132zM675.001 250.001c86.667 0 158.5 28.8291 215.5 86.4961s85.5 129.834 85.5 216.501s-28.5 158.834 -85.5 216.501s-128.833 86.5 -215.5 86.5s-158.5 -28.667 -215.5 -86s-85.5 -129.666 -85.5 -216.999s28.5 -159.666 85.5 -216.999
s128.833 -86 215.5 -86z" />
    <glyph glyph-name="r" unicode="r" horiz-adv-x="833" 
d="M709 1112l98 0.000976562v-282h-129c-84 0 -144.167 -19.833 -180.5 -59.5s-54.5 -104.834 -54.5 -195.501v-575h-299v1106h191l53 -136c76 94.667 183 142 321 142z" />
    <glyph glyph-name="s" unicode="s" horiz-adv-x="1075" 
d="M536 -31c-138.667 0 -250.504 36.1689 -335.504 108.502s-127.833 167.833 -128.5 286.5h291c0.666992 -47.333 17.834 -83.666 51.501 -108.999s78.167 -38 133.5 -38c44 0 81.167 9.66699 111.5 29s45.5 46.666 45.5 81.999c0 18 -5.16699 33.667 -15.5 47
s-26.5 24.5 -48.5 33.5s-43.667 16 -65 21s-49.333 10.5 -84 16.5c-31.333 5.33301 -57.666 10.166 -78.999 14.499s-47.166 10.833 -77.499 19.5s-55.833 18.167 -76.5 28.5s-42.5 24.166 -65.5 41.499s-41.333 36.5 -55 57.5s-25 46.5 -34 76.5s-13.5 63 -13.5 99
c0 104.667 41 189.834 123 255.501s189.333 98.5 322 98.5c133.333 0 240.333 -33.833 321 -101.5s121.334 -156.834 122.001 -267.501h-284c-0.666992 43.333 -15.5 76 -44.5 98s-69.833 33 -122.5 33c-46 0 -82.167 -9.66699 -108.5 -29s-39.5 -45 -39.5 -77
c0 -12 2.16699 -22.833 6.5 -32.5s12 -18 23 -25s21.333 -13 31 -18s24.334 -10 44.001 -15s35.667 -8.66699 48 -11l56.5 -10.5c107.333 -19.333 184.666 -39.333 231.999 -60c119.333 -53.333 179 -146.666 179 -279.999c0 -112.667 -42.333 -202.834 -127 -270.501
s-197 -101.5 -337 -101.5z" />
    <glyph glyph-name="t" unicode="t" horiz-adv-x="880" 
d="M684 266h135.999v-266h-212c-121.333 0 -217.166 35.167 -287.499 105.5s-105.5 166.833 -105.5 289.5v471h-200v64l437 465h57v-289h305v-240h-300v-431c0 -54 14.667 -95.667 44 -125s71.333 -44 126 -44z" />
    <glyph glyph-name="u" unicode="u" horiz-adv-x="1296" 
d="M649 -31c-156 0 -281.831 45.667 -377.498 137s-143.5 211.666 -143.5 360.999v639h299v-605c0 -78.667 19.667 -140.167 59 -184.5s93.666 -66.5 162.999 -66.5s123.333 22.333 162 67s58 106 58 184v605h299v-639c0 -149.333 -47.333 -269.666 -142 -360.999
s-220.334 -137 -377.001 -137z" />
    <glyph glyph-name="v" unicode="v" horiz-adv-x="1196" 
d="M869 1106h310l-439 -1106h-276l-450 1106h319l270 -741z" />
    <glyph glyph-name="w" unicode="w" horiz-adv-x="1744" 
d="M1428 1106h296l-362 -1106h-240l-251 572l-245 -572h-241l-366 1106h304l218 -659l288 651h84l297 -653z" />
    <glyph glyph-name="x" unicode="x" horiz-adv-x="1116" 
d="M1114 0h-339l-219 366l-224 -366h-329l376 568l-352 538h338l192 -320l205 320h329l-357 -523z" />
    <glyph glyph-name="y" unicode="y" horiz-adv-x="1232" 
d="M908 1106h318l-482 -1091c-46 -104 -90.833 -184.833 -134.5 -242.5s-94.5 -100.667 -152.5 -129s-128.333 -42.5 -211 -42.5h-123v269h104c70.667 0 121.167 13 151.5 39s62.833 81.667 97.5 167l4 9l-468 1021h325l295 -680z" />
    <glyph glyph-name="z" unicode="z" horiz-adv-x="1024" 
d="M491 275h466v-275h-914v33l471 802h-426v271h869v-41z" />
    <glyph glyph-name="braceleft" unicode="{" horiz-adv-x="757" 
d="M594 -49h80.998v-263h-192c-74 0 -137.167 26 -189.5 78s-78.5 115.333 -78.5 190v460c0 30.667 -11 56.834 -33 78.501s-48.667 32.5 -80 32.5h-37v246h37c31.333 0 58 11 80 33s33 48.667 33 80v475c0 73.333 26.333 136 79 188s115.667 78 189 78h191v-261h-80
c-25.333 0 -45.666 -7.5 -60.999 -22.5s-23 -34.833 -23 -59.5v-381c0 -57.333 -14.833 -108.833 -44.5 -154.5s-68.5 -78.167 -116.5 -97.5c48 -18.667 86.833 -50.834 116.5 -96.501s44.5 -97.5 44.5 -155.5v-366c0 -24 7.83301 -43.667 23.5 -59s35.834 -23 60.501 -23z
" />
    <glyph glyph-name="bar" unicode="|" horiz-adv-x="610" 
d="M166 -389v2109h278v-2109h-278z" />
    <glyph glyph-name="braceright" unicode="}" horiz-adv-x="757" 
d="M656 773h37.998v-246h-38c-31.333 0 -58 -10.833 -80 -32.5s-33 -47.834 -33 -78.501v-460c0 -74.667 -26.167 -138 -78.5 -190s-115.5 -78 -189.5 -78h-191v263h80c24.667 0 44.834 7.66699 60.501 23s23.5 35 23.5 59v366c0 58 14.833 109.833 44.5 155.5
s68.5 77.834 116.5 96.501c-48 19.333 -86.833 51.833 -116.5 97.5s-44.5 97.167 -44.5 154.5v381c0 24.667 -7.66699 44.5 -23 59.5s-35.666 22.5 -60.999 22.5h-80v261h191c73.333 0 136.333 -26 189 -78s79 -114.667 79 -188v-475c0 -31.333 11 -58 33 -80
s48.667 -33 80 -33z" />
    <glyph glyph-name="asciitilde" unicode="~" horiz-adv-x="1212" 
d="M797 461c-49.333 0 -92.666 7.66797 -129.999 23.001s-77.333 37.666 -120 66.999c-48.667 33.333 -86.667 50 -114 50c-26.667 0 -49.5 -10.167 -68.5 -30.5s-28.5 -45.833 -28.5 -76.5v-28h-211v36c0 110 27.167 197.333 81.5 262s129.166 97 224.499 97
c48 0 89.833 -7.83301 125.5 -23.5s72.5 -37.834 110.5 -66.501c28 -20 51 -34.333 69 -43s37 -13 57 -13c28.667 0 52 10.333 70 31s27 47 27 79v32h209v-36c0 -111.333 -27 -199.166 -81 -263.499s-127.667 -96.5 -221 -96.5z" />
    <glyph glyph-name="uni00A0" unicode="&#xa0;" horiz-adv-x="489" 
 />
    <glyph glyph-name="cent" unicode="&#xa2;" horiz-adv-x="1230" 
d="M1172 414c-20.667 -109.333 -68.1689 -201.667 -142.502 -277s-165.166 -124 -272.499 -146v-146h-235v145c-128.667 25.333 -234.167 88 -316.5 188s-123.5 217.333 -123.5 352c0 136 41 253.333 123 352s187.667 160.667 317 186v162h235v-163
c106 -21.333 195.5 -68.833 268.5 -142.5s120.5 -164.5 142.5 -272.5h-284c-22.667 49.333 -56 87.833 -100 115.5s-93.333 41.5 -148 41.5c-75.333 0 -138.166 -26.667 -188.499 -80s-75.5 -120.333 -75.5 -201c0 -79.333 25.5 -146 76.5 -200s113.5 -81 187.5 -81
c55.333 0 104.5 14.667 147.5 44s76.5 70.333 100.5 123h288z" />
    <glyph glyph-name="sterling" unicode="&#xa3;" horiz-adv-x="1236" 
d="M884 398h265v-398h-1056v203l126 38v296h-97v235h97v218c0 122.667 41.333 221.834 124 297.501s190.334 113.5 323.001 113.5c129.333 0 232.166 -37 308.499 -111s114.5 -173.333 114.5 -298v-32h-267v15c0 51.333 -14 92.166 -42 122.499s-66 45.5 -114 45.5
s-86.5 -15.167 -115.5 -45.5s-43.5 -71.5 -43.5 -123.5v-202h277v-235h-277v-287h377v148z" />
    <glyph glyph-name="yen" unicode="&#xa5;" horiz-adv-x="1368" 
d="M830 611v-48h331v-165h-331v-96h331v-159h-331v-143h-294v143h-331v159h331v96h-331v165h331v43l-479 756h302l322 -532l328 532h302z" />
    <glyph glyph-name="dieresis" unicode="&#xa8;" horiz-adv-x="1228" 
d="M201 1248v283h317v-283h-317zM673 1248v283h317v-283h-317z" />
    <glyph glyph-name="copyright" unicode="&#xa9;" horiz-adv-x="1695" 
d="M848 -23c-146 0 -276.833 31.333 -392.5 94s-205.834 150.167 -270.501 262.5s-97 239.5 -97 381.5s32.333 269.167 97 381.5s154.834 199.666 270.501 261.999s246.5 93.5 392.5 93.5s276.833 -31.167 392.5 -93.5s205.834 -149.666 270.501 -261.999
s97 -239.5 97 -381.5s-32.333 -269.167 -97 -381.5s-154.834 -199.833 -270.501 -262.5s-246.5 -94 -392.5 -94zM848 152c108.667 0 206.167 23.667 292.5 71s153.833 113.833 202.5 199.5s73 183.167 73 292.5s-24.333 206.833 -73 292.5s-116.167 152.167 -202.5 199.5
s-183.833 71 -292.5 71s-206.167 -23.667 -292.5 -71s-153.833 -113.833 -202.5 -199.5s-73 -183.167 -73 -292.5s24.333 -206.833 73 -292.5s116.167 -152.167 202.5 -199.5s183.833 -71 292.5 -71zM848 339c-108.667 0 -200.165 36.499 -274.498 109.499
s-111.5 162.5 -111.5 268.5c0 109.333 36.833 200 110.5 272s165.5 108 275.5 108c91.333 0 170.166 -26.667 236.499 -80s108.166 -124 125.499 -212h-194c-32.667 71.333 -88.667 107 -168 107c-54 0 -98.833 -18.667 -134.5 -56s-53.5 -83.666 -53.5 -138.999
c0 -53.333 17.833 -98.5 53.5 -135.5s80.5 -55.5 134.5 -55.5c77.333 0 133.333 38 168 114h197c-17.333 -90 -59.5 -162.667 -126.5 -218s-146.5 -83 -238.5 -83z" />
    <glyph glyph-name="guillemotleft" unicode="&#xab;" horiz-adv-x="1380" 
d="M386 110l-325 419v35l325 419h352l-332 -436l332 -437h-352zM954 110l-325 419v35l325 419h353l-332 -436l332 -437h-353z" />
    <glyph glyph-name="uni00AD" unicode="&#xad;" 
d="M126 431v288h668v-288h-668z" />
    <glyph glyph-name="registered" unicode="&#xae;" horiz-adv-x="1017" 
d="M510 1454c118.667 0 219.336 -41.333 302.003 -124s124 -183.667 124 -303s-41.333 -220.5 -124 -303.5s-183.334 -124.5 -302.001 -124.5s-219.834 41.833 -303.501 125.5s-125.5 184.5 -125.5 302.5c0 118.667 41.667 219.5 125 302.5s184.666 124.5 303.999 124.5z
M510.002 712c87.333 0 161.333 30.332 222 90.999s91 135.334 91 224.001c0 88 -30.333 162.333 -91 223s-134.667 91 -222 91c-88.667 0 -163.5 -30.5 -224.5 -91.5s-91.5 -135.167 -91.5 -222.5c0 -88 30.833 -162.5 92.5 -223.5s136.167 -91.5 223.5 -91.5zM691.002 1087
c0 -56.667 -23 -98 -69 -124l82 -141h-119l-70 122h-46v-122h-117v417h188c44 0 80.167 -14.333 108.5 -43s42.5 -65 42.5 -109zM469.002 1135v-88h60c15.333 0 27.333 4 36 12s13 18.667 13 32s-4.33301 24 -13 32s-20.667 12 -36 12h-60z" />
    <glyph glyph-name="acute" unicode="&#xb4;" horiz-adv-x="1177" 
d="M205 1228l111 312h319l-204 -312h-226z" />
    <glyph glyph-name="cedilla" unicode="&#xb8;" horiz-adv-x="794" 
d="M422 -65c56.667 -8 101.833 -28.833 135.5 -62.5s50.5 -76.5 50.5 -128.5c0 -62.667 -25 -113.667 -75 -153s-113.333 -59 -190 -59h-135v152h123c22.667 0 41.167 6.16699 55.5 18.5s21.5 28.5 21.5 48.5s-7.16699 36.167 -21.5 48.5s-32.833 18.5 -55.5 18.5h-82
l-16 19l76 268h162z" />
    <glyph glyph-name="guillemotright" unicode="&#xbb;" horiz-adv-x="1380" 
d="M426 110h-352l331 437l-331 436h352l325 -419v-35zM994 110h-352l332 437l-332 436h352l325 -419v-35z" />
    <glyph glyph-name="circumflex" unicode="&#x2c6;" horiz-adv-x="1228" 
d="M1053 1228h-257l-150 149l-148 -149h-256l235 312h339z" />
    <glyph glyph-name="ring" unicode="&#x2da;" horiz-adv-x="839" 
d="M420 1198c-77.333 0 -140 22.833 -188 68.5s-72 105.167 -72 178.5c0 74 24 133.5 72 178.5s110.667 67.5 188 67.5s139.833 -22.5 187.5 -67.5s71.5 -104.5 71.5 -178.5c0 -73.333 -23.833 -132.833 -71.5 -178.5s-110.167 -68.5 -187.5 -68.5zM420 1336
c32.667 0 59.667 10.333 81 31s32 46.667 32 78s-10.667 57.166 -32 77.499s-48.333 30.5 -81 30.5s-59.667 -10.167 -81 -30.5s-32 -46.166 -32 -77.499s10.667 -57.333 32 -78s48.333 -31 81 -31z" />
    <glyph glyph-name="tilde" unicode="&#x2dc;" horiz-adv-x="1228" 
d="M750 1227c-25.333 0 -51.5 4.5 -78.5 13.5s-46 16.5 -57 22.5s-29.833 17 -56.5 33c-43.333 26 -73.666 39 -90.999 39c-20 0 -37.333 -7.66699 -52 -23s-22 -35 -22 -59v-16h-165v22c0 85.333 21 153 63 203s100 75 174 75c36.667 0 68.5 -5.83301 95.5 -17.5
s54.833 -28.167 83.5 -49.5c39.333 -30 73.333 -45 102 -45c21.333 0 38.833 7.83301 52.5 23.5s20.5 36.167 20.5 61.5v18h165v-23c0 -86 -20.833 -153.833 -62.5 -203.5s-98.834 -74.5 -171.501 -74.5z" />
    <glyph glyph-name="uni2000" unicode="&#x2000;" horiz-adv-x="860" 
 />
    <glyph glyph-name="uni2001" unicode="&#x2001;" horiz-adv-x="1720" 
 />
    <glyph glyph-name="uni2002" unicode="&#x2002;" horiz-adv-x="860" 
 />
    <glyph glyph-name="uni2003" unicode="&#x2003;" horiz-adv-x="1720" 
 />
    <glyph glyph-name="uni2004" unicode="&#x2004;" horiz-adv-x="573" 
 />
    <glyph glyph-name="uni2005" unicode="&#x2005;" horiz-adv-x="430" 
 />
    <glyph glyph-name="uni2006" unicode="&#x2006;" horiz-adv-x="286" 
 />
    <glyph glyph-name="uni2007" unicode="&#x2007;" horiz-adv-x="286" 
 />
    <glyph glyph-name="uni2008" unicode="&#x2008;" horiz-adv-x="215" 
 />
    <glyph glyph-name="uni2009" unicode="&#x2009;" horiz-adv-x="344" 
 />
    <glyph glyph-name="uni200A" unicode="&#x200a;" horiz-adv-x="95" 
 />
    <glyph glyph-name="uni2010" unicode="&#x2010;" 
d="M126 431v288h668v-288h-668z" />
    <glyph glyph-name="uni2011" unicode="&#x2011;" 
d="M126 431v288h668v-288h-668z" />
    <glyph glyph-name="figuredash" unicode="&#x2012;" 
d="M126 431v288h668v-288h-668z" />
    <glyph glyph-name="endash" unicode="&#x2013;" horiz-adv-x="1310" 
d="M126 431v288h1059v-288h-1059z" />
    <glyph glyph-name="emdash" unicode="&#x2014;" horiz-adv-x="1851" 
d="M126 431v288h1599v-288h-1599z" />
    <glyph glyph-name="quoteleft" unicode="&#x2018;" horiz-adv-x="546" 
d="M416 1560l0.000976562 -146.002c-52.667 -7.33301 -91.834 -27.166 -117.501 -59.499s-38.5 -71.5 -38.5 -117.5h171v-320h-322v295c0 100.667 27.833 181.334 83.5 242.001s130.167 96 223.5 106z" />
    <glyph glyph-name="quoteright" unicode="&#x2019;" horiz-adv-x="530" 
d="M133 843l-0.000976562 146.002c52.667 7.33301 91.834 27.166 117.501 59.499s38.5 71.5 38.5 117.5h-171v320h322v-295c0 -100.667 -27.833 -181.334 -83.5 -242.001s-130.167 -96 -223.5 -106z" />
    <glyph glyph-name="quotesinglbase" unicode="&#x201a;" horiz-adv-x="567" 
d="M138 -324l-0.000976562 146c52.667 7.33301 91.834 27.333 117.501 60s38.5 72 38.5 118h-171v319h322v-294c0 -100.667 -27.833 -181.5 -83.5 -242.5s-130.167 -96.5 -223.5 -106.5z" />
    <glyph glyph-name="quotedblleft" unicode="&#x201c;" horiz-adv-x="1017" 
d="M416 1561l0.000976562 -146.001c-52.667 -7.33301 -91.834 -27.333 -117.501 -60s-38.5 -72 -38.5 -118h171v-319h-322v295c0 100.667 27.833 181.334 83.5 242.001s130.167 96 223.5 106zM888.001 1561l0.000976562 -146.001
c-52.667 -7.33301 -91.834 -27.333 -117.501 -60s-38.5 -72 -38.5 -118h171v-319h-322v295c0 100.667 27.833 181.334 83.5 242.001s130.167 96 223.5 106z" />
    <glyph glyph-name="quotedblright" unicode="&#x201d;" horiz-adv-x="1003" 
d="M133 843l-0.000976562 146.002c52.667 7.33301 91.834 27.166 117.501 59.499s38.5 71.5 38.5 117.5h-171v320h322v-295c0 -100.667 -27.833 -181.334 -83.5 -242.001s-130.167 -96 -223.5 -106zM604.999 843.002l-0.000976562 146.002
c52.667 7.33301 91.834 27.166 117.501 59.499s38.5 71.5 38.5 117.5h-171v320h322v-295c0 -100.667 -27.833 -181.334 -83.5 -242.001s-130.167 -96 -223.5 -106z" />
    <glyph glyph-name="quotedblbase" unicode="&#x201e;" horiz-adv-x="1040" 
d="M138 -324l-0.000976562 146c52.667 7.33301 91.834 27.333 117.501 60s38.5 72 38.5 118h-171v319h322v-294c0 -100.667 -27.833 -181.5 -83.5 -242.5s-130.167 -96.5 -223.5 -106.5zM609.999 -324v146c52.667 7.33301 92 27.333 118 60s39 72 39 118h-172v319h322v-294
c0 -100.667 -27.833 -181.5 -83.5 -242.5s-130.167 -96.5 -223.5 -106.5z" />
    <glyph glyph-name="ellipsis" unicode="&#x2026;" horiz-adv-x="1421" 
d="M123 0v320h316v-320h-316zM553 0v320h316v-320h-316zM983 0v320h317v-320h-317z" />
    <glyph glyph-name="uni202F" unicode="&#x202f;" horiz-adv-x="344" 
 />
    <glyph glyph-name="guilsinglleft" unicode="&#x2039;" horiz-adv-x="811" 
d="M386 110l-325 419v35l325 419h352l-332 -436l332 -437h-352z" />
    <glyph glyph-name="guilsinglright" unicode="&#x203a;" horiz-adv-x="811" 
d="M426 110h-352l331 437l-331 436h352l325 -419v-35z" />
    <glyph glyph-name="uni205F" unicode="&#x205f;" horiz-adv-x="430" 
 />
    <glyph glyph-name="Euro" unicode="&#x20ac;" horiz-adv-x="1331" 
d="M611 397c38.667 -54.667 88.8311 -96.6689 150.498 -126.002s130.834 -44 207.501 -44c90.667 0 170 15.333 238 46v-260c-80 -30 -163 -45 -249 -45c-149.333 0 -282.666 38.833 -399.999 116.5s-202.666 181.834 -255.999 312.501h-229l53 220h124
c-2 22 -3 44.333 -3 67c0 13.333 0.666992 32 2 56h-174l54 220h169c52.667 134 138.667 241.167 258 321.5s254.333 120.5 405 120.5c109.333 0 209.666 -19.333 300.999 -58l-60 -244c-28.667 12.667 -65.5 23.167 -110.5 31.5s-87.5 12.5 -127.5 12.5
c-77.333 0 -147 -16 -209 -48s-112.333 -77.333 -151 -136h555l-56 -220h-574c-1.33301 -12 -2 -30.667 -2 -56c0 -15.333 1.33301 -37.666 4 -66.999h542l-55 -220h-407z" />
    <glyph glyph-name="trademark" unicode="&#x2122;" horiz-adv-x="1851" 
d="M750 1249h-241v-571h-201v571h-245v185h687v-185zM1740 678h-198l-70 445l-231 -445h-38l-231 445l-72 -445h-198l124 756h175l221 -433l222 433h176z" />
    <glyph glyph-name="uni25FC" unicode="&#x25fc;" horiz-adv-x="1105" 
d="M0 1106h1106v-1106h-1106v1106z" />
    <glyph glyph-name="glyph1" horiz-adv-x="0" 
 />
    <glyph glyph-name="glyph2" horiz-adv-x="682" 
 />
    </font>
</defs>
</svg>
